[Fshare] |Võ Thuật| Kiêm Hiệp| Đại hải Tặc: The pirate: 1973.1080p.x264.AC3. YYH ( Địch Long, Khương Đại Vệ)

Đại hải Tặc: The pirate: 1973.1080p.x264..AC3~YYH

( Địch Long, Khương Đại Vệ)
10.3GB-5.7GB


Đại hải Tặc là một bộ phim hành động,kiếm hiệp, võ thuật thật hay được sản xuất bởi hãng Sahw Brothers 19731 và đạo diễn lừng dah là Trương Triệt và 2 tài tử nổi tiến là Địch Lon av2 Khương đại vệ.

Cốt truyện nói vế tên cướp biển đầy lòng hiệp nghĩa là Trương bảo Tứ sau khi cướp tàu Tây Phương ,tàu anh hư nhiều chỗ, buộc ghé vào làng sửa chữa. Làng này vừa bắt được Hoa Nhị Đạo định hành hìnhh nhưng rồi trốn thoát. Trương bảo Tứ vào làng với tư cách doanh nhân cùng vài hậu vệ,cấm những người khác vào làng. Bảo Tứ thấy dân làng bị ức hiếp quá đáng,phải bán con trả nợ.. Nhưng rồi có người trên tàu lẽn vào làng đánh bạc do dùng tiền vàng ngoạii quốc.. lúc ấy có tường trẻ phái đến Hồ Nghĩa nhận ra anh. Bảo Tứ hứa dân làng trả nợ nhưng do Hoa đại Đạo phải cướp vàng Nhị Cô nương. Sau đó Tường đại Nhân và Nhị cô nương đuổi theo nhưng rồi Bảo từ hạ gục hết bọn này chỉ còn lại mình anh. Anh phải đánh đánh tay đôi với tướng Hồ Nghĩa nhung rồi bất phân thăng tha81g bại nên tha anh thoát thân vì tình hiệp nghĩa của anh

Phim này ngoài hình ảnh đẹp,rõ cốt truyện thật gây cấn, rất xứng đáng lưu mãi trong số các phim kinh điển hay nhất mọi thời đại; chắc rồi đây bạn sẽ còn muốn xem xem lại nhiều lần nữa.

Sub Việt này được HLIEU chỉnh lại tích hợp luôn vào phim không để riêng. Dù sao, file srt này không phải hard code nên bạn có thể tách dễ dàng bằng cách dùng MkvextractGUI.exe trong MKV toolnix.

Hy vọng được các bạn mê say bộ phim hấp dẫn này sẽ cho nhiều comment(mỗi ngày /chỉ cần 1 người) và bài khỏi bị trôi đi đâu mất tiêu, giúp các bạn nào biết trể còn tìm ra được phim này. Nhớ là bạn ;ikes chỉ tải phim chưa đủ đâu, mà xin nhớ please comment giùm tác giả khi thấy phim nào quá hay để còn giúp bạn bè khác nữa có cơ hội xem được phim hay như mình..

Phim này có bonus một phim hành động thật King Eaglke 1971 480p dành cho các bạn xem được phụ đề tiếng Anh.

6.7/10

trên 76 người xem​

Thể loại: Hành động, Bõ thật, Kiếm hiệp

Đạo diễn Trương Triệt

Hãng Phim: Shaw Brothers

Sản xuất: năm 1973

Diễn viên chính:

Địch Long vai Trương Bảo Tứ

.KhươngĐại Vệ vai Tướng trẻ Hồ Nghĩa

Điền thanh vai Tường đại nhân

Vụ Phong vai Tường nhị cô nương

Phiên Mai Sanh vai Hoa Nhị Đạo

Tên cướp biển Trương BảoTứ dương buồm đến một bờ biển phía nam Trung Quốc vừa mới cướp tàu ngoại quốc tu rất nhiều vàng bạc châu báu.Tuy vậy, tàu của anh cũng hư hại khá nhiều lủng nhiều lỗ buộc phải ghé vào bờ sửa chữa,không thôi chạy nữa sẽ chìm. BảoTứ cải trang thành một thương nhân giàu có. Ở đó, dân làng sống trong cảnh nghèo đói do phải đấu tranh chống lại việc khai thác và tham nhũng của tênTường đại Nhân và em gái hắn. Em gái là Tường nhị cô nương thương lượng với bộ đầu giao tên cướp Hoa Nhị Đạo để lảnh tiền thưởng rất cao ở Macau.

Điều này giúp Hoa Nhị Đạo chạy thoát được ra bờ biển. bảo Tứ liên hệ vớ Tường đại Nhân để sửa chữa tàu. Dù có dặn kỹ không cho ai trên tàu nữa lên bờ nhưng rồi cũng có tên lẽn lên vào sòng bạc, gái điếm. Trong khi tên Hoa nhị Đạo ép nhân viên của anh cướp tàu ra khởi dù có báo không thể di xa được tàu sẽ chìm.

Đô đốc của triều đình nhà Thanh gửi tướng trẻ Hồ Nghĩa để điều tra nơi cướp biển đang lẩn trốn và cuối cùng tìm thấy Bảo Tứ. bảo Tứ lỡ hứa giúp dâ làn mỗi tàu 5 lạng bạc nhưng giờ kẹt tiền vì tàu bị Hoa Nhị Đạo cướp. anh phải tổ chức cướp số vàng bạc tãi Tường nhị cô nương.

Anh chạy thoát ra biển nhưng bọn Tường đại nhân với rất đông đồng bọn đuổi theo Cuối cùng anh giết hết được bọn ác ôn Tường đại Nhân nhưng đồng bọn anh cũng chết hết. Anh giao lại số vàng cho dân làng và gặp lại tướng Hồ Nghịa. Hai bên dánh nhau ác liệt nhưng bất phân thắng bại đến tối họmới nghỉ. Hồ nghĩa nghĩ tình hiệp nghĩa Truơng bảo Tứ nên tha cho anhđi, bằng cách cho anh chiếc thuyền nhỏ và hẹn gặp nhau lại trên biển và sẽ không tha. .

a) General Video 1080p

File size : 10.3 GiB

Duration : 1h 36mn

Overall bit rate : 15.3 Mbps

Writing application : Lavf53.24.2

Format : AVC

Format/Info : Advanced Video Codec

Format profile : [email protected]

Duration : 1h 36mn

Bit rate : 15.0 Mbps

Width : 1 920 pixels

Height : 1 080 pixels

Display aspect ratio : 2.40:1

Original display aspect ratio : 2.40:1

Frame rate mode : Constant

Frame rate : 23.976 fps

Bit depth : 8 bits

Stream size : 10.1 GiB (98%)

b) General Video720p

File size : 5.70 GiB

Duration : 1h 36mn

Overall bit rate : 8 482 Kbps

Codec ID : V_MPEG4/ISO/AVC

Duration : 1h 36mn

Nominal bit rate : 8 000 Kbps

Width : 1 280 pixels

Height : 720 pixels

Bit depth : 8 bits

c) Audio

Format settings, Endianness : Big

Codec ID : ac-3

Duration : 1h 36mn

Bit rate mode : Constant

Bit rate : 320 Kbps

Channel(s) : 6 channels

Channel positions : Front: L C R, Side: L R, LFE

Sampling rate : 48.0 KHz

Bit depth : 16 bits

Stream size : 220 MiB (2%)

Language : English

e) Subtitle Vetnmaese non hard code

The pirate 1-2.jpg

The pirate 5-6.jpg


The pirate 1-2.jpg

The pirate 3-4.jpg

The pirate 5-6.jpg

The pirate 7-8.jpg

The pirate 9-10.jpg

The pirate 11-12.jpg

The pirate 13-14.jpg

The pirate 15-16.jpg

The pirate 17-18.jpg



Bạn nào thích down bản 720p có ở mục download Fshare



HLIEU

GD Star Rating
loading...
GD Star Rating
loading...

About The Author

Chào các bạn! Cần link tải phim nào thì cứ comment nhé các bạn!!!

Related posts

Leave a Reply

Email của bạn sẽ không được hiển thị công khai. Các trường bắt buộc được đánh dấu *