[Fshare] [Hành Động ★ Hình Sự] Batman Returns 1992 1080p BluRay x264 DTS-FGT ★★★ Người Dơi Trở Lại

Batman Returns 1992 1080p BluRay x264 DTS-FGT
★★★ Người Dơi Trở Lại ★★★

Ratings: 7,0/10

[​IMG]

[​IMG]



Mã:
Video
ID : 1
Format : AVC
Format/Info : Advanced Video Codec
Format profile : [email protected]
Format settings, CABAC : Yes
Format settings, ReFrames : 4 frames
Codec ID : V_MPEG4/ISO/AVC


Duration : 2h 6mn
Bit rate : 13.5 Mbps
Width : 1 914 pixels
Height : 1 080 pixels
Display aspect ratio : 16:9
Frame rate mode : Constant
Frame rate : 23.976 fps
Color space : YUV
Chroma subsampling : 4:2:0
Bit depth : 8 bits
Scan type : Progressive
Bits/(Pixel*Frame) : 0.272
Stream size : 11.9 GiB (88%)
Writing library : x264 core 130 r2273kMod b3065e6
Encoding settings : cabac=1 / ref=4 / deblock=1:-3:-3 / analyse=0x3:0x113 / me=umh / subme=11 / psy=1 / fade_compensate=0.00 / psy_rd=1.00:0.00 / mixed_ref=1 / me_range=48 / chroma_me=1 / trellis=2 / 8x8dct=1 / cqm=0 / deadzone=21,11 / fast_pskip=1 / chroma_qp_offset=-2 / threads=12 / lookahead_threads=2 / sliced_threads=0 / nr=0 / decimate=1 / interlaced=0 / bluray_compat=0 / constrained_intra=0 / bframes=9 / b_pyramid=2 / b_adapt=2 / b_bias=0 / direct=3 / weightb=1 / open_gop=0 / weightp=2 / keyint=250 / keyint_min=23 / scenecut=40 / intra_refresh=0 / rc_lookahead=40 / rc=crf / mbtree=0 / crf=19.2500 / qcomp=0.75 / qpmin=0 / qpmax=69 / qpstep=4 / vbv_maxrate=50000 / vbv_bufsize=62500 / crf_max=0.0 / nal_hrd=none / ip_ratio=1.25 / pb_ratio=1.15 / aq=1:0.80
Language : English
Default : Yes
Forced : No
Color range : Limited
Matrix coefficients : BT.709
Audio
ID : 2
Format : DTS
Format/Info : Digital Theater Systems
Mode : 16
Format settings, Endianness : Big
Codec ID : A_DTS
Duration : 2h 6mn
Bit rate mode : Constant
Bit rate : 1 509 Kbps
Channel(s) : 6 channels
Channel positions : Front: L C R, Side: L R, LFE
Sampling rate : 48.0 KHz
Bit depth : 24 bits
Compression mode : Lossy
Stream size : 1.33 GiB (10%)
Language : English
Default : Yes
Forced : No
Text #1
ID : 3
Format : UTF-8
Codec ID : S_TEXT/UTF8
Codec ID/Info : UTF-8 Plain Text
Language : English
Default : No
Forced : No
Text #2
ID : 4
Format : UTF-8
Codec ID : S_TEXT/UTF8
Codec ID/Info : UTF-8 Plain Text
Title : SDH
Language : English
Default : No
Forced : No
Menu
00:00:00.000 : en:\"I\'ll Get Drive-Through\" (Credits)
00:02:23.308 : en:Of Two Minds; Insightful But Naive
00:05:30.663 : en:Steel Trap
00:07:10.096 : en:Copter Chaos
00:09:22.727 : en:Too Many Questions
00:12:48.099 : en:Getting Under His Cape
00:17:13.198 : en:Terminating Stickley
00:23:11.556 : en:Riddles to Solve (Bad Days)
00:25:19.016 : en:Not Exactly What They Seem
00:28:30.375 : en:Tragedy Under the Big Top
00:33:51.195 : en:Wayne Manor\'s New Resident
00:40:26.924 : en:\"It\'s Happening Again\"
00:43:04.081 : en:Broken Wings Mend in Time
00:44:12.315 : en:Ambush on Gotham\'s Streets
00:48:31.241 : en:The Riddler Comes Calling
00:54:08.411 : en:A New Criminal Couple
00:55:48.011 : en:Secrets in the Sky and Under Wayne Manor
00:57:59.809 : en:\"We\'re All Two People\"
00:59:44.247 : en:A Ride in the Other Car (Smash It Up, Where Are You Now?)
01:02:15.731 : en:\"I\'m a Part of This\"
01:07:47.729 : en:The Nygmatech Tango
01:10:02.198 : en:Party Crashers
01:13:09.051 : en:Needed Guidance
01:17:59.341 : en:The Lady Decides
01:20:42.504 : en:Bats on the Brain
01:22:29.611 : en:The Crimefighter Decides
01:26:44.032 : en:Unhappy Halloween
01:31:44.999 : en:Intruders at Wayne Manor
01:33:47.455 : en:Counting on Batman
01:38:13.887 : en:Partners
01:40:38.698 : en:By Air and Sea
01:42:44.158 : en:Taking a Dive
01:44:08.575 : en:Clash on Claw Island
01:48:42.849 : en:Double Jeopardy
01:50:45.639 : en:Flipped Out
01:53:56.162 : en:Now a Choice
01:55:46.439 : en:Batman\'s Identity
01:58:21.928 : en:A New Dream
02:00:50.910 : en:End Credits (Hold Me, Thrill Me, Kiss Me, Kill Me; Kiss From
[​IMG]

GD Star Rating
loading...
GD Star Rating
loading...

About The Author

Chào các bạn! Cần link tải phim nào thì cứ comment nhé các bạn!!!

Related posts

Leave a Reply

Email của bạn sẽ không được hiển thị công khai. Các trường bắt buộc được đánh dấu *