[Fshare] | Hành động|Tội phạm| Hoàng gia nữ tướng ; She shoots straight 1990 1080p BluRay.x264.THC

Hoàng gia nữ tướng ; She shoots straight 1990 1080p BluRay.x264.THC

( Cao Lệ Hồng, Lưj gia linh, Hồng Kim Bảo, Lương Gia Huy)= 9.94GB-5.4GB)

[​IMG]

[​IMG]

Đây là một phim thuộc loại hành động, Võ Thuậhấp dẫn từ đầu đến cuối qua tài diễn suất của 3 tài tử HK là Cao Lệ Hồng, Lưu Gia Huy, Hồng Kim Bảo
Chuyện tình lãng mạn đưa đến hôn nhân giữaa nữ cảh sát Mina và con trai là Hoàng trung Bảo là con trai của gia đình họ Hoàng gồm 4 cô con gái và 1 con nuôi.).Các cô con gái không phục chị dâu cho là cô này giành công với họ. Trong đó có Hoàng gia Linh là xung khắc cho là chị dâu là người con gái lai này.


Một toán dân cướp vượt biên trốn hỏi trại tị nạn ngoài HK cướp phá phòng trà Tân Thế giới.Họ tổ chức mua súng rồi cướp lấy của bọn buôn.súng .


Gia đình họ Hoàng đầu tiên phản đối các con gái mình vai vũ nữ phòng trà, cuối cùng tham dư. Hòàng gia Linh bi lộ thân phận khiến sếp Lưu đình chức qua chữ ký chị dâu mình , nhưng cô này tưởng chị dâu chơi xấu hại mình.
Một cú điện thoại gọi đến Mina nói cho biết tin về toán cướp. Hoàng gia Linh nghe được tự mình đến. Trung Bảo và Mina cũng hay cú điện thoại định đến tiếp cứu nhưng đã muộn anh bị phục kích, bị dâm nhiều nhát thanh tre mà chết.
Sau này, Sép Lưu nói gia đình họ Hoàng nghỉ phép nhưng họ không chịu. Biết tin tình báo bọn cướp định rời HK bằng táu đi Panama. Linh và Mina nóng lòng trả thù đến sớm đánh nhau ác liệt cuối cùng bằt được tên đầu xỏ. Nhưng cuối cùng tên này có cô em giài cứu. Mina đơn thân đuổi theo tên cướp tế xe từ xcao xuống hố chết. Cô em tên cướp dấu nhau ác liệt với Mina.cuối cùng bị bắt sống giải về.
Ngoài hình ảnh đẹp, rõ ,cốt truyện thật gây cấn, rất xứng đáng lưu mãi trong số các phim kinh điển hay nhất mọi thời đại; chắc rồi đây bạn sẽ còn muốn xem xem lại nhiều lần nữa.
Sub Việt được chỉnh lại tona bộ bởi HLIEU được tích hợp luôn vào phim không để riêng. Dù sao, file srt này không phải hard code nên bạn có thể tách dễ dàng bằng cách dùng MkvextractGUI.exe trong MKV toolnix.
Hy vọng được các bạn mê say bộ phim hấp dẫn này sẽ cho nhiều comment(mỗi ngày /chỉ cần 1 người) và bài khỏi bị trôi đi đâu mất tiêu, giúp các bạn nào biết trể còn tìm ra được phim này. Nhớ là bạna like chỉ tải phim chưa đủ đâu, mà xin nhớ please comment giùm tác giả khi thấy phim nào quá hay để còn giúp bạn bè khác nữa có cơ hội xem được phim hay như mình

[​IMG]
6.6/10
trên 282 người xem​
[​IMG]

Thể loại: Hành động, Tọi phạm

Hãng phim Gia Hoà
Đạo diễn Nguyên Khuê
Diễn viên chính:

Joyce Godenzi CaoLệ Hồng vai Thẩm sát viên Mina

Lưu Gia Linh vai Hoàng Gia Linh

Hồng Kim Bảo vai Sĩ quan cao cấp Hồng

Lương Gia Huy vai Hoàng Trung Bảo

[​IMG]

a)General Video 1080p

File size : 9.75 GiB

Duration : 1 h 55 min

Overall bit rate : 12.1 Mb/s

Format : AVC

Format/Info : Advanced Video Codec

Bit rate : 12.0 Mb/s

Width : 1 920 pixels

Height : 1 080 pixels

Display aspect ratio : 16:9

Frame rate mode : Constant

Frame rate : 25.000 FPS

Bit depth : 8 bits

Stream size : 9.68 GiB (99%)

b) General Video 720p

File size : 5.11 GiB

Duration : 1 h 55 min

Overall bit rate : 6 353 kb/s

Bit rate : 6 000 kb/s

Width : 1 280 pixels

Height : 720 pixels

Display aspect ratio : 16:9

Bit depth : 8 bits

Scan type : Progressive

Bits/(Pixel*Frame) : 0.272

Stream size : 4.85 GiB (95%)

c)Audio 720-1080p

Format : AC-3

Format/Info : Audio Coding 3

Format settings, Endianness : Big

Duration : 1 h 55 min

Bit rate : 320 kb/s

Channel(s) : 6 channels

Channel positions : Front: L C R, Side: L R, LFE

Sampling rate : 48.0 kHz

Frame rate : 31.250 FPS (1536 SPF)

Bit depth : 16 bits

d)-Subtitles: Vietnamese non hard code, [/QUOTE]

[​IMG]

She soots 1-2.jpg
She soots 3-4.jpg
She soots 5-6.jpg
She soots 7-8.jpg
She soots 9-10.jpg
She soots 11-12.jpg
She soots 13-14.jpg
She soots 15-16.jpg

[​IMG]

Sheshoots sraight1990 1080p

Nhấn nút Cảm ơn (dưới chân bài) để thấy link!

English sub http://www.fshare.vn/file/QYFW147GD8PM

bản 720p

Nhấn nút Cảm ơn (dưới chân bài) để thấy link!

http://i66.tinypic.com/10gb69k.jpg[/IMG]

Đã có bản 720p phim này ở mục download fshare, bạn nào thích bản 720p cứ chọn tải link Fshare

Danh sách các phim 1080p mà HLIEU đã post

HLIEU​

GD Star Rating
loading...
GD Star Rating
loading...

About The Author

Chào các bạn! Cần link tải phim nào thì cứ comment nhé các bạn!!!

Related posts

Leave a Reply

Email của bạn sẽ không được hiển thị công khai. Các trường bắt buộc được đánh dấu *