[Fshare] [Hình Sự] The Tourist 2010 1080p BluRay x264-NODLABS | Du Khách Bí Ẩn

The Tourist 2010 1080p BluRay x264-NODLABS

Du Khách Bí Ẩn ~ Sub Việt

[​IMG]

Mã:

	

[mediainfo] Video ID : 1 Format : AVC Format/Info : Advanced Video Codec Format profile : [email protected] Format settings, CABAC : Yes Format settings, ReFrames : 5 frames Codec ID : V_MPEG4/ISO/AVC Duration : 1h 43mn Bit rate : 9 080 Kbps Width : 1 920 pixels Height : 800 pixels Display aspect ratio : 2.40:1 Frame rate mode : Constant Frame rate : 23.976 (24000/1001) fps Color space : YUV Chroma subsampling : 4:2:0 Bit depth : 8 bits Scan type : Progressive Bits/(Pixel*Frame) : 0.247 Stream size : 6.41 GiB (84%) Writing library : x264 core 114 r1924 08d04a4 Encoding settings : cabac=1 / ref=5 / deblock=1:0:0 / analyse=0x3:0x113 / me=umh / subme=8 / psy=1 / psy_rd=1.00:0.00 / mixed_ref=1 / me_range=16 / chroma_me=1 / trellis=1 / 8x8dct=1 / cqm=0 / deadzone=21,11 / fast_pskip=1 / chroma_qp_offset=-2 / threads=12 / sliced_threads=0 / nr=0 / decimate=1 / interlaced=0 / constrained_intra=0 / bframes=3 / b_pyramid=2 / b_adapt=2 / b_bias=0 / direct=3 / weightb=1 / open_gop=0 / weightp=2 / keyint=240 / keyint_min=24 / scenecut=40 / intra_refresh=0 / rc_lookahead=50 / rc=2pass / mbtree=1 / bitrate=9080 / ratetol=1.0 / qcomp=0.60 / qpmin=0 / qpmax=69 / qpstep=4 / cplxblur=20.0 / qblur=0.5 / ip_ratio=1.40 / aq=1:1.00 Language : English Default : Yes Forced : No Audio ID : 2 Format : DTS Format/Info : Digital Theater Systems Mode : 16 Format settings, Endianness : Big Codec ID : A_DTS Duration : 1h 43mn Bit rate mode : Constant Bit rate : 1 509 Kbps Channel(s) : 6 channels Channel positions : Front: L C R, Side: L R, LFE Sampling rate : 48.0 KHz Frame rate : 93.750 fps (512 spf) Bit depth : 24 bits Compression mode : Lossy Stream size : 1.09 GiB (14%) Language : English Default : Yes Forced : No Text #1 ID : 3 Format : UTF-8 Codec ID : S_TEXT/UTF8 Codec ID/Info : UTF-8 Plain Text Default : Yes Forced : No Text #2 ID : 4 Format : UTF-8 Codec ID : S_TEXT/UTF8 Codec ID/Info : UTF-8 Plain Text Language : English Default : No Forced : No Menu 00:00:00.000 : en:00:00:00.000 00:08:05.860 : en:00:08:05.860 00:11:30.857 : en:00:11:30.857 00:17:08.277 : en:00:17:08.277 00:25:06.672 : en:00:25:06.672 00:30:27.117 : en:00:30:27.117 00:34:13.009 : en:00:34:13.009 00:40:59.582 : en:00:40:59.582 00:49:29.842 : en:00:49:29.842 00:55:22.736 : en:00:55:22.736 01:00:55.944 : en:01:00:55.944 01:06:24.314 : en:01:06:24.314 01:12:52.535 : en:01:12:52.535 01:17:40.739 : en:01:17:40.739 01:24:38.365 : en:01:24:38.365 01:30:16.536 : en:01:30:16.536 [/mediainfo]

Nội Dung: Sau đổ vỡ trong tình yêu nhà khoa học Frank quyết định đi du lịch Venice. Tại đây Frank đã gặp cô gái xinh đẹp nhưng có tung tích bí ẩn Elise. anh chàng Frank ngốc ngếch trở thành đối tượng bị lợi dụng và có thể gặp nguy hiểm bất cứ lúc nào. The Tourist là phim thuần túy mang tính chất giải trí nội dung phim không quá đặc sắc nhưng với sự góp mặt của 2 ngôi sao hàng đầu Holywood Johny Dept và Agelia Jolie, The tourist vẫn rất cuốn hút khán giả. Bối cảnh của phim thành phố Venice cổ kính và xinh đẹp chính là điểm cộng tiếp theo cho phim.

[​IMG]

[​IMG]

Link FShare.vn

Link 4Share.vn

Link Subscene.Com

+ KHO GAME PC , PHIM HD , GHOST , SOFTWARE ĐỒ SỘ NHẤT VIỆT NAM
—–
+ KHO PHIM HD CẬP NHẬT LIÊN TỤC
—–
+ KHO GAME PC CẬP NHẬT LIÊN TỤC
—–
+ KHO GHOST + WINDOW + SOFTWARE CẬP NHẬT LIÊN TỤC
—–
+ KHO NHẠC, LOSSLESS CẬP NHẬT LIÊN TỤC

GD Star Rating
loading...
GD Star Rating
loading...

About The Author

Chào các bạn! Cần link tải phim nào thì cứ comment nhé các bạn!!!

Related posts

Leave a Reply

Email của bạn sẽ không được hiển thị công khai. Các trường bắt buộc được đánh dấu *