[Fshare] [Kinh Dị] Anarchy Parlor 2015 720p WEB-DL.x264-ETRG – Nghệ Thuật Đẫm Máu

Anarchy Parlor 2015 720p WEB-DL.x264-ETRG
Nghệ Thuật Đẫm Máu

[​IMG]



[​IMG]

[​IMG]

[​IMG]

[​IMG]

[​IMG]

[​IMG]

[​IMG]

[​IMG]

[​IMG]

[​IMG]

[​IMG]

[​IMG]

Mã:
Format                         : Matroska
Format version                 : Version 4 / Version 2
File size                      : 3.03 GiB
Duration                       : 1h 38mn
Overall bit rate               : 4 395 Kbps
Encoded date                   : UTC 2015-05-12 10:02:51
Writing application            : mkvmerge v6.7.0 ('Back to the Ground') 64bit built on Jan  8 2014 15:10:52
Writing library                : libebml v1.3.0 + libmatroska v1.4.1
Video
ID                             : 1
Format                         : AVC
Format/Info                    : Advanced Video Codec
Format profile                 : [email protected]
Format settings, CABAC         : No
Format settings, ReFrames      : 2 frames
Codec ID                       : V_MPEG4/ISO/AVC
Duration                       : 1h 38mn
Bit rate                       : 3 923 Kbps
Width                          : 1 280 pixels
Height                         : 534 pixels
Display aspect ratio           : 2.40:1
Frame rate mode                : Constant
Frame rate                     : 23.976 fps
Color space                    : YUV
Chroma subsampling             : 4:2:0
Bit depth                      : 8 bits
Scan type                      : Progressive
Bits/(Pixel*Frame)             : 0.239
Stream size                    : 2.71 GiB (89%)
Language                       : English
Default                        : Yes
Forced                         : No
Color primaries                : BT.709
Transfer characteristics       : BT.709
Matrix coefficients            : BT.709
Audio
ID                             : 2
Format                         : AC-3
Format/Info                    : Audio Coding 3
Mode extension                 : CM (complete main)
Format settings, Endianness    : Big
Codec ID                       : A_AC3
Duration                       : 1h 38mn
Bit rate mode                  : Constant
Bit rate                       : 384 Kbps
Channel count                  : 6 channels
Channel positions              : Front: L C R, Side: L R, LFE
Sampling rate                  : 48.0 KHz
Bit depth                      : 16 bits
Compression mode               : Lossy
Stream size                    : 271 MiB (9%)
Language                       : English
Default                        : Yes
Forced                         : No

Anarchy Parlor2015 Fshare 1 link

Sub Việt

GD Star Rating
loading...
GD Star Rating
loading...

About The Author

Chào các bạn! Cần link tải phim nào thì cứ comment nhé các bạn!!!

Related posts

Leave a Reply

Email của bạn sẽ không được hiển thị công khai. Các trường bắt buộc được đánh dấu *